DUAL AUDIO | Знакомьтесь, Джо Блэк / Meet Joe Black (1998) | 한국어/조선말
koralldesign.se - The Largest Bittorent System Login   |    Register
Latest Articles
Most searched
Hot torrents
Movie Torrents
View Torrent Info: Incredibles 2 (2018) [720p] [YTS] [YIFY]
View Torrent Info: Satyameva Jayate (2018) [720p] [YTS] [YIFY]
View Torrent Info: Galveston (2018) [720p] [YTS] [YIFY]
View Torrent Info: The Night Comes for Us (2018) [720p] [YTS] [YIFY]
View Torrent Info: Malicious (2018) [720p] [YTS] [YIFY]
View Torrent Info: Illang: The Wolf Brigade (2018) [720p] [YTS] [YIFY]
View Torrent Info: The Dark (2018) [720p] [YTS] [YIFY]
View Torrent Info: Thunder Road (2018) [720p] [YTS] [YIFY]
View Torrent Info: Hiccup (2018) [720p] [YTS] [YIFY]
View Torrent Info: The Super (2017) [720p] [YTS] [YIFY]
Hot torrents
TV Torrents
View Torrent Info: The.Walking.Dead.S09E03.HDTV.x264-SVA[eztv]
View Torrent Info: Supergirl.S04E02.HDTV.x264-SVA[eztv]
View Torrent Info: Blindspot.S04E02.HDTV.x264-SVA[eztv]
View Torrent Info: How.to.Get.Away.with.Murder.S05E04.HDTV.x264-KILLERS[eztv]
View Torrent Info: Arrow.S07E02.HDTV.x264-SVA[eztv]
View Torrent Info: Modern.Family.S10E04.HDTV.x264-PHOENiX[eztv]
View Torrent Info: DCs.Legends.of.Tomorrow.S04E01.HDTV.x264-SVA[eztv]
View Torrent Info: SEAL.Team.S02E03.HDTV.x264-PHOENiX[eztv]
View Torrent Info: NCIS.Los.Angeles.S10E04.HDTV.x264-SVA[eztv]
View Torrent Info: Titans.2018.S01E02.WEB.x264-PHOENiX[eztv]
koralldesign.se > Categories > Movies torrents > Dubbed /Dual Audio torrents


Browse Movies torrents

[MoviesJug.Net] Arthur And The Invisibles (2006) 720p BluRay [Dual Audio] [Hindi ORG - English] x264 Eng Subs torrent



Download torrent: Download [MoviesJug.Net] Arthur And The Invisibles (2006) 720p BluRay [Dual Audio] [Hindi ORG - English] x264 Eng Subs torrent Magnet link Bookmark Torrent: [MoviesJug.Net] Arthur And The Invisibles (2006) 720p BluRay [Dual Audio] [Hindi ORG - English] x264 Eng Subs [MoviesJug.Net] Arthur And The Invisibles (2006) 720p BluRay [Dual Audio] [Hindi ORG - English] x264 Eng Subs torrent | if not working, try instead: Magnet Link
Info hash: 0E3A714A02FE078CA0C45B5395105C94B575588F
Category: Categories > Movies torrents > Dubbed /Dual Audio torrents
Trackers:
50    View all torrent trackers >
Health:
 seeds: 18 ,  leechers: 3 |  Update >
Total Size: 966.60 MB
Torrent status: Added by trusted uploader Added by trusted uploader Trusted Uploader Site Friend Superman Sun
Uploader: Trusted Uploader Site Friend Superman Sun
Torrent added: 2018-10-12 02:41:02
 

Download [MoviesJug.Net] Arthur And The Invisibles (2006) 720p BluRay [Dual Audio] [Hindi ORG - English] x264 Eng Subs torrent if not working, try downloading torrent using Download [MoviesJug.Net] Arthur And The Invisibles (2006) 720p BluRay [Dual Audio] [Hindi ORG - English] x264 Eng Subs via Magnet Link




Torrent Description







VISIT OUR SITE ==}http://moviesjug.net/




SCREENSHOTS









MEDIA INFO




General
Arthur And The Invisibles (2006) [MoviesJug.Net] 720p BluRay [Dual Audio] [Hindi ORG - English] x264 Eng Subs.mkv
Format : Matroska
Format version : Version 4 / Version 2
File size : 967 MiB
Duration : 1 h 43 min
Overall bit rate : 1 301 kb/s
Movie name : Downloaded From [MoviesJug.Net]

Video
ID : 1
Format : AVC
Format/Info : Advanced Video Codec
Format profile : [email protected]
Format settings : CABAC / 5 Ref Frames
Format settings, CABAC : Yes
Format settings, RefFrames : 5 frames
Codec ID : V_MPEG4/ISO/AVC
Duration : 1 h 43 min
Bit rate : 985 kb/s
Width : 1 280 pixels
Height : 548 pixels
Display aspect ratio : 2.35:1
Frame rate mode : Constant
Frame rate : 23.976 (24000/1001) FPS
Color space : YUV
Chroma subsampling : 4:2:0
Bit depth : 8 bits
Scan type : Progressive
Bits/(Pixel*Frame) : 0.059
Stream size : 732 MiB (76%)
Title : Downloaded From [MoviesJug.Net]
Writing library : x264 core 148 r2721 72d53ab
Language : English
Default : Yes
Forced : No

Audio #1
ID : 2
Format : AC-3
Format/Info : Audio Coding 3
Codec ID : A_AC3
Duration : 1 h 43 min
Bit rate mode : Constant
Bit rate : 224 kb/s
Channel(s) : 2 channels
Channel positions : Front: L R
Sampling rate : 48.0 kHz
Frame rate : 31.250 FPS (1536 SPF)
Bit depth : 16 bits
Compression mode : Lossy
Stream size : 166 MiB (17%)
Title : Downloaded From [MoviesJug.Net]
Language : Hindi
Service kind : Complete Main
Default : Yes



#Moviesjug -> To avoid fakes, ALWAYS check that the torrent was added on koralldesign.se by Moviesjug

http://koralldesign.se/



Download [MoviesJug.Net] Arthur And The Invisibles (2006) 720p BluRay [Dual Audio] [Hindi ORG - English] x264 Eng Subs torrent


Comments (please add your comment)
No comments



Home - Browse Torrents - Upload Torrent - Stat - Forum - FAQ - Login
koralldesign.se is in compliance with copyrights
2006-2018 koralldesign.se