Baixar XAPK | Workaholics | Adventures of Superman
koralldesign.se - The Largest Bittorent System Login   |    Register
Latest Articles
Most searched
Hot torrents
Movie Torrents
View Torrent Info: The Equalizer 2 (2018) [720p] [YTS] [YIFY]
View Torrent Info: Mile 22 (2018) [720p] [YTS] [YIFY]
View Torrent Info: The Meg (2018) [720p] [YTS] [YIFY]
View Torrent Info: Papillon (2017) [720p] [YTS] [YIFY]
View Torrent Info: Charming (2018) [720p] [YTS] [YIFY]
View Torrent Info: Luis & the Aliens (2018) [720p] [YTS] [YIFY]
View Torrent Info: Gold (2018) [720p] [YTS] [YIFY]
View Torrent Info: Nun (2017) [720p] [YTS] [YIFY]
View Torrent Info: Along with the Gods: The Last 49 Days (2018) [720p] [YTS] [YIFY]
View Torrent Info: Welcome to Mercy (2018) [720p] [YTS] [YIFY]
Hot torrents
TV Torrents
View Torrent Info: The.Flash.2014.S05E04.HDTV.x264-SVA[eztv]
View Torrent Info: DCs.Legends.of.Tomorrow.S04E02.HDTV.x264-SVA[eztv]
View Torrent Info: American.Horror.Story.S08E08.WEBRip.x264-TBS[eztv]
View Torrent Info: Arrow.S07E03.HDTV.x264-SVA[eztv]
View Torrent Info: The.Good.Doctor.S02E05.HDTV.x264-KILLERS[eztv]
View Torrent Info: The.Big.Bang.Theory.S12E07.HDTV.x264-SVA[eztv]
View Torrent Info: The.Gifted.S02E05.HDTV.x264-LucidTV[eztv]
View Torrent Info: Modern.Family.S10E06.XviD-AFG[eztv]
View Torrent Info: Lethal.Weapon.S03E05.WEB.x264-TBS[eztv]
View Torrent Info: Arrow.S07E03.HDTV.x264-PHOENiX[eztv]
koralldesign.se > Categories > Movies torrents > Dubbed /Dual Audio torrents


Browse Movies torrents

[MoviesJug.Net] BHARAT The Great Leader 2018 Official Hindi Dubbed Trailer 1080p,720p,480p,360p Mahesh Babu torrent



Download torrent: Download [MoviesJug.Net] BHARAT  The Great Leader 2018 Official Hindi Dubbed Trailer 1080p,720p,480p,360p Mahesh Babu torrent Magnet link Bookmark Torrent: [MoviesJug.Net] BHARAT  The Great Leader 2018 Official Hindi Dubbed Trailer 1080p,720p,480p,360p Mahesh Babu [MoviesJug.Net] BHARAT The Great Leader 2018 Official Hindi Dubbed Trailer 1080p,720p,480p,360p Mahesh Babu torrent | if not working, try instead: Magnet Link
Info hash: 449199B9CB495566137D29230885A09491514F6A
Category: Categories > Movies torrents > Dubbed /Dual Audio torrents
Trackers:
50    View all torrent trackers >
Health:
 seeds: 80 ,  leechers: 6 |  Update >
Total Size: 38.40 MB
Torrent status: Added by trusted uploader Added by trusted uploader Trusted Uploader Site Friend Superman Sun
Uploader: Trusted Uploader Site Friend Superman Sun
Torrent added: 2018-10-12 01:58:29
 

Download [MoviesJug.Net] BHARAT  The Great Leader 2018 Official Hindi Dubbed Trailer 1080p,720p,480p,360p Mahesh Babu torrent if not working, try downloading torrent using Download [MoviesJug.Net] BHARAT  The Great Leader 2018 Official Hindi Dubbed Trailer 1080p,720p,480p,360p Mahesh Babu via Magnet Link




Torrent Description









VISIT OUR SITE==}

http://moviesjug.net/



SCREENSHOTS









MEDIA INFO




General
BHARAT The Great Leader 2018 [MoviesJug.Net] Official Hindi Dubbed Trailer 1080p Mahesh Babu.mkv
Format : Matroska
Format version : Version 4 / Version 2
File size : 15.0 MiB
Duration : 2 min 4 s
Overall bit rate : 1 012 kb/s
Movie name : Downloaded From [MoviesJug.Net]

Video
ID : 1
Format : AVC
Format/Info : Advanced Video Codec
Format profile : [email protected]
Format settings : CABAC / 3 Ref Frames
Format settings, CABAC : Yes
Format settings, RefFrames : 3 frames
Codec ID : V_MPEG4/ISO/AVC
Duration : 2 min 4 s
Bit rate : 882 kb/s
Width : 1 920 pixels
Height : 1 080 pixels
Display aspect ratio : 16:9
Frame rate mode : Constant
Frame rate : 30.000 FPS
Color space : YUV
Chroma subsampling : 4:2:0
Bit depth : 8 bits
Scan type : Progressive
Bits/(Pixel*Frame) : 0.014
Stream size : 13.1 MiB (87%)
Title : Downloaded From [MoviesJug.Net]
Language : Hindi
Default : Yes
Forced : No
Color range : Limited
Color primaries : BT.709
Transfer characteristics : BT.709
Matrix coefficients : BT.601

Audio
ID : 2
Format : AAC
Format/Info : Advanced Audio Codec
Format profile : LC
Codec ID : A_AAC-2
Duration : 2 min 4 s
Bit rate : 128 kb/s
Channel(s) : 2 channels
Channel positions : Front: L R
Sampling rate : 44.1 kHz
Frame rate : 43.066 FPS (1024 SPF)
Compression mode : Lossy
Stream size : 1.90 MiB (13%)
Title : Downloaded From [MoviesJug.Net]
Language : Hindi
Default : Yes
Forced : No



#Moviesjug -> To avoid fakes, ALWAYS check that the torrent was added on koralldesign.se by Moviesjug

http://koralldesign.se/



Download [MoviesJug.Net] BHARAT  The Great Leader 2018 Official Hindi Dubbed Trailer 1080p,720p,480p,360p Mahesh Babu torrent


Comments (please add your comment)
1
posted by iamdeepak97 (2018-10-12 18:02:24)
iamdeepak97 avatar plzz plzz plzz sir hindi dubbed movie upload........................................


2
posted by iamdeepak97 (2018-10-12 18:03:20)
iamdeepak97 avatar plzz sir this movie hindi dubbed upload...................................................................................................





Home - Browse Torrents - Upload Torrent - Stat - Forum - FAQ - Login
koralldesign.se is in compliance with copyrights
2006-2018 koralldesign.se
Sitemap